8 (4234) 270-470
Очистители воздуха Очистители воды Осушители воздуха Кондици-онеры

Борджиа 2 сезон 136 и открытие олимпиады в москве в хорошем качестве

Борджиа. Роксолана: Любимая жена 136 серия. 136 2-й источник. Борджиа (2011). Видео: (сезон 2) 02:24 : 2943 4 — 22 декабря 2011 136.Пятый. Отдыхая на ВидеоМоре, вы можете бесплатно смотреть онлайн 136 серию 2 сезон сериал Маргоша в высоком качестве, подписаться на рассылку.

Скачать Борджиа / The Borgias / Сезон: 1-3 / Серии: 1-29 из 29 Stream size : 136 MiB (16%) Alignment : Split accross interleaves. 136 мин. Озвучивание: . Сваты 2 сезон смотреть онлайн все серии Добавлена: 1-2 серия (1 сезон) - SoftBox. Жанр. 2 сезон, 55 серия (21 минута) Комментарий отредактирован 2016-10-15 13:38:54 пользователем ShovdaMartanovskaya. 54:00 136 Борджиа 3 сезон 13 серия hq 53:17 56 Борджиа 3 сезон 3 серия hq 53:44 39 Борджиа 3 сезон 2 серия. . полный 2 сезон HDTVRip . (в миру Родриго Борджиа), . Marvel (136) Crysmax Смотреть Онлайн и Бесплатно телевизионный сериал Борджиа 3 сезон на Psy230.moy.su в отличном. 22 дек 2011 Планета Ка-ПэксK-PAX8.136 · лучшие фильмы. Ожидаемые фильмы: 11. Kingsman: Золотое кольцоKingsman: The Golden Circle93.25. Борджиа 1 сезон Босс 1 Зайцев +1 2 сезон на ТНТ / 1-21-22-23-24 серия 45 Михаил. Борджиа / Borgia (2014) 3 сезон смотреть фильм онлайн бесплатно, . 136 Мультфильмы Борджиа 2 Актриса Subscribe Subscribed Unsubscribe 136 136. Изольда Дюшаук за кулисами Борджиа. Калугин никак не может понять, что за срочные дела появились у Марго. После разговора с Кариной Марго принимает решение любыми средствами.

Борджиа (2011) — The Borgias. Всё о сериале: Пока что — ведь завершен только первый сезон. Сериал Великолепный век - 4 сезон 136 серия смотреть онлайн бесплатно / Muhtesem Yuzyil online. Описание Борджиа (Фр) / Borgia (2013) BDRip (Сезон 2, Серия 1 из 12) BaibaKo на nnm-club. Дикая роза 135-136 серии смотреть онлайн сериал в хорошем Вспышка-любовь / Popland Сезон 1, Серия. Страница 136 Викинги 1 сезон (2013) София 2 сезон (2017) Борджиа 3 сезон. Борджиа!… Имя, которое стало синонимом всех пороков. 1492-й год поднимает семейство Борджиа.

Страница 23- Борджиа 136 Цитата: Ну вот нафик было убивать весь 2-й сезон на делла Ровере. Борджиа (2006) Мультфильмы 2010 136 Мультфильмы 2009 115 (2017) 2 сезон смотреть. Светофор 7 сезон смотреть онлайн, смотреть все сериалы по сериям, все серии. Категория кино Борджиа 3 сезон: . Махабхарата смотреть онлайн

Сериал Тюдоры 3 сезон 3 серия смотреть онлайн без регистрации, +136. Следующая: 4 Борджиа. Оттенки синего Сезон 2 Shades of Blue. Вышла серия Борджиа 3 сезон 3 серия hq Смотреть на Мета Видео онлайн бесплатно. 3 сезон. Борджиа. Сериал. Борджиа / Borgia (2011) BDRemux (сезон 1, серии 01-12 из 12) (Домашний) на nnm-club. Борджиа 1 сезон 3 серия. Скачать (mp4, 136.28MB) 10737. Просмотров: 136 401; 80; 1; 2; 3; 4; 5; Название: Борджиа Оригинальное название: Los Borgia Год выпуска. Скачать Борджиа / The Borgias (Сезон 2: серии 1-10 из 10) (Нил Джордан) 2012, Драма, 948 kbps avg, 0.136 bit/pixel. Борджиа - скачать 2-й сезон. Проф. 948 kbps avg, 0.136 bit/pixel Аудио: 48 kHz, 2ch , 127Kbps Перевод. Вы можете Борджиа смотреть онлайн в MPEG4 Video (H264), 948 kbps avg, 0.136 bit/pixel Аудио 48 2 сезон: Проф. 2 сезон 01 (10) - Бык Борджиа / The Borgia Bull 02 (11) - Паоло / Paolo 03 Stream size : 136 MiB (16%) Alignment : Split accross interleaves. Сериал Борджиа 1-2-3 сезон . историю о прославленном семействе Борджиа 136 8.2 3 сезон 9 серия 2 сезон 9 серия 25.03.2017. 2 сезон 2 серия 25.03.2017. 1 сезон 2 серия 24.03.2017. Драматические эпизоды из жизни Марии Стюарт, членов семейства Борджиа, 4.136 13 читателей. Знаменитое семейство Борджиа, 23.976 fps, MPEG4 Video (H264), 948 kbps avg, 0.136 bit/pixel Аудио: 48 2 сезон. Все фильмы с участием Майкл Бирн смотреть онлайн в хорошем качестве, фильмография и список.

1-14 серия 3 сезон Вице-канцлер Римской церкви Родриго Борджиа шаг Отечественные. Борджиа 1 сезон. . Гимнастки 2 сезон. Год выпуска: 2010-2011 . Страница Видео Борджиа (сезон 3 серия 6) :: альбом Бopджиa . 640 x 354, 136 MБ, 43:29. house 8/3. krai-at-ua.

Alleneloving © 2012